หน้า: 1 ... 31 32 33 34 35 36 37 [38] 39 40 41 42 43 44 45 46
 
ผู้เขียน หัวข้อ: ก็อปอะไรกันอยู่  (อ่าน 114886 ครั้ง)
0 สมาชิก และ 1 ขาจร กำลังดูหัวข้อนี้
http://eservice.dopa.go.th/Election/Elecenter/interenqabs/index.php
บันทึกการเข้า

หกโมงเย็นถึงตีสาม
บันทึกการเข้า

บันทึกการเข้า

ทำมาหากินด้วยการเปิดร้านสกรีนเสื้อยืด จ้ะ
 กร๊าก กร๊าก กร๊าก กร๊าก กร๊าก
บันทึกการเข้า

#445088
บันทึกการเข้า

[*user.accounts_valid.pluck(:id), Account.demo.try(:id)]
บันทึกการเข้า

เราจะต้องการอะไรมากมายไปกว่า อะไรมากมาย
Input #0, mpegts, from 'udp://239.1.1.3:5004':
  Duration: N/A, start: 8967.538944, bitrate: 384 kb/s
  Program 3
    Metadata:
      service_name    : TPBS
      service_provider: CTH
    Stream #0:0[0x3fd]: Video: mpeg2video (Main) ([2][0][0][0] / 0x0002), yuv420p, 720x576 [SAR 16:15 DAR 4:3], 25 fps, 25 tbr, 90k tbn, 50 tbc
    Stream #0:1[0x3fe](tha): Audio: mp2 ([3][0][0][0] / 0x0003), 48000 Hz, stereo, s16p, 192 kb/s
    Stream #0:2[0x3ff](eng): Audio: mp2 ([3][0][0][0] / 0x0003), 48000 Hz, stereo, s16p, 192 kb/s
บันทึกการเข้า

http://www.niceoppai.net/attack-on-titans/53/?all
บันทึกการเข้า

อืมมม...
https://www.facebook.com/photo.php?fbid=664668043574349&set=a.128311627209996.10653.118338954873930&type=1&stream_ref=10
บันทึกการเข้า

ทำมาหากินด้วยการเปิดร้านสกรีนเสื้อยืด จ้ะ
http://eservice.dopa.go.th/Election/Elecenter/interenqabs/index.php
บันทึกการเข้า

http://pantip.com/topic/31603122
บันทึกการเข้า

อืมมม...
อ่อนหัด มีความตั้งใจแต่ก็อ่อนหัด
บันทึกการเข้า

วัฒนธรรมชุบแป้งทอด: เปลือยพริตตี้ - 6 ก.พ.57 (HD)
บันทึกการเข้า
หนึ่งชีวิตของคนๆหนึ่งหากจะนับเป็นเรื่องราว และแปลงลงเป็นภาพถ่าย
หนึ่งชีวิตนั้นคงจะมีภาพที่แสนมากมาย ที่เป็นความทรงจำของเรา :)
บันทึกการเข้า

EK877970238TH
บันทึกการเข้า

หน้า: 1 ... 31 32 33 34 35 36 37 [38] 39 40 41 42 43 44 45 46
 
 
Powered by MySQL Powered by PHP Powered by SMF 1.1.21 | SMF © 2006-2007, Simple Machines | Thai language by ThaiSMF Valid XHTML 1.0! Valid CSS!